HD-AREA wünscht Euch eine besinnliche Weihnachtszeit ;)

DNS SERVER AENDERNum der staatlichen Zensur zu umgehen. Sollten wir von eurem Provider geseprrt werden, nutzt den TOR BROWSER oder ändert euren DNS SERVER.

Filmwünsche können bei uns im Forum abgegeben werden

Wir Speichern Nicht




 
 
 
Top Releases
Bird.Box.Schliesse.deine.Aug...
Being.Mario.Goetze.2018.GERM...
Being.Mario.Goetze.2018.GERM...
Liebe.Bringt.Alles.Ins.Rolle...
Halloween.2018.German.DL.AC3...
Mogli.Legende.des.Dschungels...
Liebe.Bringt.Alles.Ins.Rolle...
Wer.war.Hitler.2017.German.A...
Liebe.Bringt.Alles.Ins.Rolle...
Liebe.Bringt.Alles.Ins.Rolle...

Cinedubs
Eho.Echo.German.720p.WEBRip....
Eho.Echo.German.1080p.WEBRip...
Bad.Times.at.the.El.Royale.2...
Bad.Spies.2018.German.DL.AC3...
Aquaman.2018.GERMAN.AC3.MD.7...
Bad.Spies.German.DL.AC3.Dubb...
Bad.Spies.German.DL.AC3.Dubb...
Bad.Times.at.the.El.Royale.G...
Bad.Times.at.the.El.Royale.G...
The.Guilty.German.DL.AC3.Dub...

Neuerscheinungen 2017-18
Welcome.Home.2018.German.DD5...
Welcome.Home.2018.German.DD5...
Predator.Upgrade.2018.German...
The.Sun.at.Midnight.2016.Ger...
The.Bet.2006.German.DL.1080p...
The.Bet.2006.German.DL.1080p...
The.Dragon.Unleashed.2019.Ge...
Smallfoot.Ein.eisigartiges.A...
Bob.Roberts.1992.German.1080...
Deutschland.bleiche.Mutter.1...

XXX
FallInLovia.18.12.13.Seeing....
DayWithAPornstar.18.12.17.Ka...
DadCrush.18.12.16.Serena.San...
DeepThroatSirens.18.12.10.Op...
FiLFExtra.E16.Skin.Diamond.B...
FallInLovia.18.12.15.Baby.It...
FiLFExtra.E20.Coco.Valentina...
DebtDandy.18.12.14.E274.XXX....
FatManFuck.18.12.16.Stacey.L...
DigitalDesire.18.12.10.Megan...
CzechEscortGirls.18.12.17.Iz...
Drilled.18.12.17.Joseline.Ke...
DorcelClub.18.12.17.Clea.Gau...
ATKGirlfriends.18.12.17.Lily...
ATKGirlfriends.18.12.17.Broo...
CzechCasting.18.12.17.Sarka....
EuroGirlsOnGirls.18.12.17.Mi...
DateSlam.18.12.17.Jureka.Hor...
FiLFExtra.E18.Eunique.A.Euni...
FakeTaxi.18.12.16.Princess.P...

3D
Limbradur.und.die.Magie.der....
Kaluoka.Hina.Das.Zauberriff....
Limbradur.und.die.Magie.der....
Smallfoot.3D.2018.COMPLETE.B...
Smallfoot.Ein.eisigartiges.A...
Skyscraper.3D.2018.German.DL...
Meg.3D.2018.MULTi.COMPLETE.B...
Meg.3D.2018.German.DL.1080p....
Gans.im.Glueck.3D.2018.MULTi...
The.Art.of.Flight.3D.2011.Ge...
The.End.Of.The.World.3D.2010...
The.First.Avenger.Civil.War....
Die.Unglaublichen.2.2018.3D....
Skyscraper.3D.2018.MULTi.COM...
Ant-Man.And.The.Wasp.3D.2018...

Old_Stuff
Akte.X.S05.German.DTS.DL.108...
Akte.X.S04.German.DTS.DL.108...
Akte.X.S03.German.DTS.DL.108...
Dunkirk.1958.COMPLETE.BLURAY...
Das.Wunder.von.Manhattan.199...
The.Amazing.Spiderman.2.Rise...
Rise.of.the.Predator.2014.Ge...
Detective.Dee.und.das.Geheim...
Detective.Dee.Und.Der.Fluch....
Ghost.Rider.Spirit.of.Vengea...
Species.IV.Das.Erwachen.2007...
Species.IV.Das.Erwachen.2007...
Hotel.Transsilvanien.2012.Ge...
The.Dead.2010.German.DL.1080...
The.Dead.2.India.2013.German...

Filme
Das.Maerchen.von.der.Regentr...
Fahrenheit.451.2018.GERMAN.D...
Night.School.2018.German.AC3...
Breaking.In.2018.German.DL.1...
Die.Galoschen.des.Gluecks.20...
Ohne.Ausweg.1993.German.DL.1...
Wenn.suess.das.Mondlicht.auf...
Rolls.Royce.Baby.1975.German...
Koenig.der.Fischer.1991.AC3D...
Amores.perros.2000.German.AC...
Romeo.Is.Bleeding.1993.Germa...
Da.geht.noch.was.2013.German...
Rurouni.Kenshin.The.Legends....
Rurouni.Kenshin.Kyoto.Infern...
Runaway.Spinnen.des.Todes.19...
Runaway.Girl.2011.German.DL....
Run.For.Her.Life.2010.German...
Run.for.Blood.2006.German.DT...
Ruined.Heart.2014.German.SUB...
Santa.Claus.und.der.Zauberkr...
Santa.Clause.2.2002.GERMAN.A...
Die.Verfluchten.1960.German....
Die.Geisterstadt.der.Zombies...
Dragon.Dynasty.2006.German.D...

 
 
Welcome.Home.2018.German.DD51.DL.720p.WebHD.h264-KOC

Jahr: 2018
Genre: Thriller
Sprache: Deutsch AC3 | Englisch AC3
Laufzeit: 1h 33mn
Bitrate: 2 846 Kbps
Format: MKV
Größe: 1.87 GiB
Release:

Beschreibung:

Auf den ersten Blick sind Bryan (Aaron Paul) und Cassie (Emily Ratajkowski) ein perfektes Paar, nachdem sich alles umdreht, wenn sie irgendwo langgehen. Doch seit Bryan sie dabei erwischt hat, wie sie ihn betrogen hat, kriselt es in der Beziehung heftig. Daher reisen sie nach Italien, wo sie ein ehemaliges Kloster für eine Woche mieten, um auf dem Land die alte Romantik wieder zu finden. Doch als sich Cassie dort mit dem in der Nähe wohnenden Federico (Riccardo Scamarcio) anfreundet, ist Bryan sofort wieder eifersüchtig. Aber das muss er bald beiseite wischen, denn es gehen merkwürdige Dinge vor sich. Welche Rolle spielen dabei Federico und ihr mehr als mysteriöser Vermieter Eduardo (Francesco Acquaroli)? Ehe Bryan und Cassie sich versehen, geht es nicht mehr darum, ob ihre Beziehung die Italienreise überlebt. Die Frage ist vielmehr: Überleben sie den Urlaub?



Complete name                            : Welcome.Home.2018.German.DD51.DL.720p.WebHD.h264-KOC.mkv
Format                                   : Matroska
Format version                           : Version 2
File size                                : 1.87 GiB
Duration                                 : 1h 33mn
Overall bit rate                         : 2 846 Kbps
Encoded date                             : UTC 2018-12-27 12:35:38
Writing application                      : mkvmerge v29.0.0 ('Like It Or Not') 64-bit
Writing library                          : libebml v1.3.6 + libmatroska v1.4.9
DURATION                                 : 01:30:02.000000000
NUMBER_OF_FRAMES                         : 21
NUMBER_OF_BYTES                          : 512
_STATISTICS_WRITING_APP                  : mkvmerge v29.0.0 ('Like It Or Not') 64-bit
_STATISTICS_WRITING_DATE_UTC             : 2018-12-27 12:35:38
_STATISTICS_TAGS                         : BPS DURATION NUMBER_OF_FRAMES NUMBER_OF_BYTES

Video
ID                                       : 1
Format                                   : AVC
Format/Info                              : Advanced Video Codec
Format profile                           : High@L3.1
Format settings, CABAC                   : Yes
Format settings, ReFrames                : 5 frames
Codec ID                                 : V_MPEG4/ISO/AVC
Duration                                 : 1h 33mn
Bit rate                                 : 2 022 Kbps
Width                                    : 1 280 pixels
Height                                   : 536 pixels
Display aspect ratio                     : 2.40:1
Frame rate mode                          : Constant
Frame rate                               : 25.000 fps
Color space                              : YUV
Chroma subsampling                       : 4:2:0
Bit depth                                : 8 bits
Scan type                                : Progressive
Bits/(Pixel*Frame)                       : 0.118
Stream size                              : 1.33 GiB (71%)
Writing library                          : x264 core 157 r2935 545de2f
Encoding settings                        : cabac=1 / ref=5 / deblock=1:-3:-3 / analyse=0x3:0x113 / me=umh / subme=7 / psy=1 / psy_rd=1.00:0.00 / mixed_ref=1 / me_range=32 / chroma_me=1 / trellis=1 / 8x8dct=1 / cqm=0 / deadzone=21,11 / fast_pskip=1 / chroma_qp_offset=-2 / threads=6 / lookahead_threads=1 / sliced_threads=0 / nr=0 / decimate=1 / interlaced=0 / bluray_compat=0 / constrained_intra=0 / bframes=5 / b_pyramid=2 / b_adapt=2 / b_bias=0 / direct=1 / weightb=1 / open_gop=0 / weightp=2 / keyint=250 / keyint_min=25 / scenecut=40 / intra_refresh=0 / rc_lookahead=40 / rc=crf / mbtree=1 / crf=17.0 / qcomp=0.60 / qpmin=0 / qpmax=69 / qpstep=4 / ip_ratio=1.40 / aq=1:1.00
Default                                  : Yes
Forced                                   : No

Audio #1
ID                                       : 2
Format                                   : AC-3
Format/Info                              : Audio Coding 3
Mode extension                           : CM (complete main)
Format settings, Endianness              : Big
Codec ID                                 : A_AC3
Duration                                 : 1h 33mn
Bit rate mode                            : Constant
Bit rate                                 : 384 Kbps
Channel(s)                               : 6 channels
Channel positions                        : Front: L C R, Side: L R, LFE
Sampling rate                            : 48.0 KHz
Bit depth                                : 16 bits
Compression mode                         : Lossy
Stream size                              : 258 MiB (13%)
Language                                 : German
Default                                  : Yes
Forced                                   : No

Audio #2
ID                                       : 3
Format                                   : AC-3
Format/Info                              : Audio Coding 3
Mode extension                           : CM (complete main)
Format settings, Endianness              : Big
Codec ID                                 : A_AC3
Duration                                 : 1h 33mn
Bit rate mode                            : Constant
Bit rate                                 : 384 Kbps
Channel(s)                               : 6 channels
Channel positions                        : Front: L C R, Side: L R, LFE
Sampling rate                            : 48.0 KHz
Bit depth                                : 16 bits
Compression mode                         : Lossy
Stream size                              : 258 MiB (13%)
Language                                 : English
Default                                  : No
Forced                                   : No

Text
ID                                       : 4
Format                                   : UTF-8
Codec ID                                 : S_TEXT/UTF8
Codec ID/Info                            : UTF-8 Plain Text
Language                                 : German
Default                                  : Yes
Forced                                   : No


Download:
Share Online Share OnlineShare OnlineShare Online
 

Kommentare