HD-AREA wünscht Euch eine besinnliche Weihnachtszeit ;)

DNS SERVER AENDERNum der staatlichen Zensur zu umgehen. Sollten wir von eurem Provider geseprrt werden, nutzt den TOR BROWSER oder ändert euren DNS SERVER.

Filmwünsche können bei uns im Forum abgegeben werden

Wir Speichern Nicht




 
 
 
Top Releases
Hubert.und.Staller.Eine.scho...
Outrage.Coda.2017.German.AC3...
Sie.nannten.ihn.Jeeg.Robot.2...
Bird.Box.Schliesse.deine.Aug...
Being.Mario.Goetze.2018.GERM...
Being.Mario.Goetze.2018.GERM...
Liebe.Bringt.Alles.Ins.Rolle...
Halloween.2018.German.DL.AC3...
Mogli.Legende.des.Dschungels...
Liebe.Bringt.Alles.Ins.Rolle...

Cinedubs
Eho.Echo.German.720p.WEBRip....
Eho.Echo.German.1080p.WEBRip...
Bad.Times.at.the.El.Royale.2...
Bad.Spies.2018.German.DL.AC3...
Aquaman.2018.GERMAN.AC3.MD.7...
Bad.Spies.German.DL.AC3.Dubb...
Bad.Spies.German.DL.AC3.Dubb...
Bad.Times.at.the.El.Royale.G...
Bad.Times.at.the.El.Royale.G...
The.Guilty.German.DL.AC3.Dub...

Neuerscheinungen 2017-18
Subconscious.Cruelty.2000.Ge...
How.It.Ends.2018.German.AC3D...
Subconscious.Cruelty.2000.MU...
Welcome.Home.2018.German.DD5...
Welcome.Home.2018.German.DD5...
Predator.Upgrade.2018.German...
The.Sun.at.Midnight.2016.Ger...
The.Bet.2006.German.DL.1080p...
The.Bet.2006.German.DL.1080p...
The.Dragon.Unleashed.2019.Ge...

XXX
FreakMobMedia.18.11.28.Adree...
FinishHim.18.12.14.Kitty.Cat...
HotAndMean.18.12.16.Daisy.Ma...
GirlsOutWest.18.12.18.Audrey...
GirlsOutWest.18.12.16.Alicia...
GirlsWay.18.12.16.Ashley.Ada...
GirlsGonePink.18.12.17.Abell...
FiLFExtra.E24.Cameron.Dee.An...
GirlsWay.18.12.17.Chloe.Cher...
FiLFExtra.E26.Amber.White.Am...
FiLFExtra.E22.Alaina.Kristar...
Hegre.18.12.18.A.Day.In.The....
GirlsGoneWild.18.12.14.Naudi...
ElegantAngel.Big.Wet.Interra...
FiLFExtra.E29.Valerie.White....
ElegantAngel.Big.Wet.Interra...
GroupSexGames.18.12.16.Dora....
Hitzefrei.18.12.11.Celina.Da...
HookupHotshot.E171.Emily.Wil...
GirlsOutWest.18.12.17.Kit.Ba...

3D
Limbradur.und.die.Magie.der....
Kaluoka.Hina.Das.Zauberriff....
Limbradur.und.die.Magie.der....
Smallfoot.3D.2018.COMPLETE.B...
Smallfoot.Ein.eisigartiges.A...
Skyscraper.3D.2018.German.DL...
Meg.3D.2018.MULTi.COMPLETE.B...
Meg.3D.2018.German.DL.1080p....
Gans.im.Glueck.3D.2018.MULTi...
The.Art.of.Flight.3D.2011.Ge...
The.End.Of.The.World.3D.2010...
The.First.Avenger.Civil.War....
Die.Unglaublichen.2.2018.3D....
Skyscraper.3D.2018.MULTi.COM...
Ant-Man.And.The.Wasp.3D.2018...

Old_Stuff
Akte.X.S05.German.DTS.DL.108...
Akte.X.S04.German.DTS.DL.108...
Akte.X.S03.German.DTS.DL.108...
Dunkirk.1958.COMPLETE.BLURAY...
Das.Wunder.von.Manhattan.199...
The.Amazing.Spiderman.2.Rise...
Rise.of.the.Predator.2014.Ge...
Detective.Dee.und.das.Geheim...
Detective.Dee.Und.Der.Fluch....
Ghost.Rider.Spirit.of.Vengea...
Species.IV.Das.Erwachen.2007...
Species.IV.Das.Erwachen.2007...
Hotel.Transsilvanien.2012.Ge...
The.Dead.2010.German.DL.1080...
The.Dead.2.India.2013.German...

Filme
Outrage.2010.German.AC3.DL.1...
Rocky.1976.German.AC3.DL.108...
Shaft.Noch.Fragen.2000.Germa...
Savage.Dog.2017.German.DL.10...
Rosa.Lebe.deine.Fantasie.201...
Rosemarys.Baby.1968.German.D...
Ronal.der.Barbar.2011.German...
The.Blade.Das.zerbrochene.Sc...
Savage.Streets.1984.German.D...
Savaged.UNCUT.2013.German.DL...
Nitro.28.Winter.GERMAN.AC3.D...
Mona.Lisa.1986.GERMAN.AC3.10...
Beyond.The.Brick.A.LEGO.Bric...
Eisbaeren.Abenteuer.Einer.Ju...
Ein.Pinguin.Kommt.Selten.All...
Satanic.Slaughter.2004.Germa...
Saturday.Morning.Massacre.20...
Christmas.Twister.2012.Germa...
Die.Fliege.II.1989.German.10...
Ski.Academy.1990.German.1080...
Das.Dorf.der.wilden.Tiere.GE...
The.Lodger.Der.Untermieter.2...
My.Girl.2.Meine.grosse.Liebe...
Gestohlene.Worte.Der.Roman.d...

 
 
Ronal.der.Barbar.2011.German.1080p.BluRay.x264-ENCOUNTERS

Jahr: 2011
Genre: Animation, Komödie
Sprache: Deutsch DTS
Laufzeit: 1h 29mn
Bitrate: 5 299 Kbps
Format: MKV
Größe: 3.30 GiB
Release:

Beschreibung:

Ronal ist alles andere als ein Barbar, wie er im Buche steht. Er ist schmächtig, dürr und hat ein dünnes Stimmchen. Trotzdem ist er die einzige Hoffnung seines Stammes. Denn die stolzen, muskulösen, ölig glänzenden Krieger sind in die Fänge des fiesen Eroberers Volcazar geraten. Mithilfe eines esoterisch veranlagten Elben, eines Barden, der nicht singen kann, und einer vorlauten Kämpferin versucht Ronal nun, über sich hinauszuwachsen und das magische Schwert zu finden, um sein Volk aus den Fängen des widerlichen Volcazar zu befreien.



Complete name                            : encounters-rodeba_1080p.mkv
Format                                   : Matroska
Format version                           : Version 2
File size                                : 3.30 GiB
Duration                                 : 1h 29mn
Overall bit rate                         : 5 299 Kbps
Encoded date                             : UTC 2012-04-25 15:37:49
Writing application                      : mkvmerge v5.5.0 ('Healer') built on Apr  6 2012 21:43:24
Writing library                          : libebml v1.2.3 + libmatroska v1.3.0

Video
ID                                       : 1
Format                                   : AVC
Format/Info                              : Advanced Video Codec
Format profile                           : High@L4.1
Format settings, CABAC                   : Yes
Format settings, ReFrames                : 5 frames
Codec ID                                 : V_MPEG4/ISO/AVC
Duration                                 : 1h 29mn
Bit rate                                 : 3 684 Kbps
Width                                    : 1 920 pixels
Height                                   : 808 pixels
Display aspect ratio                     : 2.35:1
Frame rate mode                          : Constant
Frame rate                               : 23.976 fps
Color space                              : YUV
Chroma subsampling                       : 4:2:0
Bit depth                                : 8 bits
Scan type                                : Progressive
Bits/(Pixel*Frame)                       : 0.099
Stream size                              : 2.29 GiB (70%)
Writing library                          : x264 core 122 r2184 5c85e0a
Encoding settings                        : cabac=1 / ref=5 / deblock=1:-1:-1 / analyse=0x3:0x133 / me=umh / subme=7 / psy=1 / psy_rd=1.00:0.15 / mixed_ref=1 / me_range=16 / chroma_me=1 / trellis=1 / 8x8dct=1 / cqm=0 / deadzone=21,11 / fast_pskip=0 / chroma_qp_offset=-3 / threads=9 / sliced_threads=0 / nr=0 / decimate=1 / interlaced=0 / bluray_compat=0 / constrained_intra=0 / bframes=3 / b_pyramid=2 / b_adapt=1 / b_bias=0 / direct=1 / weightb=1 / open_gop=0 / weightp=2 / keyint=250 / keyint_min=23 / scenecut=40 / intra_refresh=0 / rc_lookahead=40 / rc=crf / mbtree=1 / crf=20.0 / qcomp=0.60 / qpmin=0 / qpmax=69 / qpstep=4 / ip_ratio=1.40 / aq=1:1.00
Default                                  : Yes
Forced                                   : No

Audio
ID                                       : 2
Format                                   : DTS
Format/Info                              : Digital Theater Systems
Mode                                     : 16
Format settings, Endianness              : Big
Codec ID                                 : A_DTS
Duration                                 : 1h 29mn
Bit rate mode                            : Constant
Bit rate                                 : 1 509 Kbps
Channel(s)                               : 6 channels
Channel positions                        : Front: L C R, Side: L R, LFE
Sampling rate                            : 48.0 KHz
Bit depth                                : 16 bits
Compression mode                         : Lossy
Stream size                              : 962 MiB (28%)
Title                                    : German
Language                                 : German
Default                                  : Yes
Forced                                   : No

Text
ID                                       : 3
Format                                   : UTF-8
Codec ID                                 : S_TEXT/UTF8
Codec ID/Info                            : UTF-8 Plain Text
Title                                    : German Forced
Language                                 : German
Default                                  : Yes
Forced                                   : Yes


Download:
Share Online Share OnlineShare OnlineShare Online
 

Kommentare