HD-AREA wünscht Euch eine besinnliche Weihnachtszeit ;)

DNS SERVER AENDERNum der staatlichen Zensur zu umgehen. Sollten wir von eurem Provider geseprrt werden, nutzt den TOR BROWSER oder ändert euren DNS SERVER.

Filmwünsche können bei uns im Forum abgegeben werden

Wir Speichern Nicht




 
 
 
Top Releases
Hubert.und.Staller.Eine.scho...
Outrage.Coda.2017.German.AC3...
Sie.nannten.ihn.Jeeg.Robot.2...
Bird.Box.Schliesse.deine.Aug...
Being.Mario.Goetze.2018.GERM...
Being.Mario.Goetze.2018.GERM...
Liebe.Bringt.Alles.Ins.Rolle...
Halloween.2018.German.DL.AC3...
Mogli.Legende.des.Dschungels...
Liebe.Bringt.Alles.Ins.Rolle...

Cinedubs
Eho.Echo.German.720p.WEBRip....
Eho.Echo.German.1080p.WEBRip...
Bad.Times.at.the.El.Royale.2...
Bad.Spies.2018.German.DL.AC3...
Aquaman.2018.GERMAN.AC3.MD.7...
Bad.Spies.German.DL.AC3.Dubb...
Bad.Spies.German.DL.AC3.Dubb...
Bad.Times.at.the.El.Royale.G...
Bad.Times.at.the.El.Royale.G...
The.Guilty.German.DL.AC3.Dub...

Neuerscheinungen 2017-18
Subconscious.Cruelty.2000.Ge...
How.It.Ends.2018.German.AC3D...
Subconscious.Cruelty.2000.MU...
Welcome.Home.2018.German.DD5...
Welcome.Home.2018.German.DD5...
Predator.Upgrade.2018.German...
The.Sun.at.Midnight.2016.Ger...
The.Bet.2006.German.DL.1080p...
The.Bet.2006.German.DL.1080p...
The.Dragon.Unleashed.2019.Ge...

XXX
FreakMobMedia.18.11.28.Adree...
FinishHim.18.12.14.Kitty.Cat...
HotAndMean.18.12.16.Daisy.Ma...
GirlsOutWest.18.12.18.Audrey...
GirlsOutWest.18.12.16.Alicia...
GirlsWay.18.12.16.Ashley.Ada...
GirlsGonePink.18.12.17.Abell...
FiLFExtra.E24.Cameron.Dee.An...
GirlsWay.18.12.17.Chloe.Cher...
FiLFExtra.E26.Amber.White.Am...
FiLFExtra.E22.Alaina.Kristar...
Hegre.18.12.18.A.Day.In.The....
GirlsGoneWild.18.12.14.Naudi...
ElegantAngel.Big.Wet.Interra...
FiLFExtra.E29.Valerie.White....
ElegantAngel.Big.Wet.Interra...
GroupSexGames.18.12.16.Dora....
Hitzefrei.18.12.11.Celina.Da...
HookupHotshot.E171.Emily.Wil...
GirlsOutWest.18.12.17.Kit.Ba...

3D
Limbradur.und.die.Magie.der....
Kaluoka.Hina.Das.Zauberriff....
Limbradur.und.die.Magie.der....
Smallfoot.3D.2018.COMPLETE.B...
Smallfoot.Ein.eisigartiges.A...
Skyscraper.3D.2018.German.DL...
Meg.3D.2018.MULTi.COMPLETE.B...
Meg.3D.2018.German.DL.1080p....
Gans.im.Glueck.3D.2018.MULTi...
The.Art.of.Flight.3D.2011.Ge...
The.End.Of.The.World.3D.2010...
The.First.Avenger.Civil.War....
Die.Unglaublichen.2.2018.3D....
Skyscraper.3D.2018.MULTi.COM...
Ant-Man.And.The.Wasp.3D.2018...

Old_Stuff
Akte.X.S05.German.DTS.DL.108...
Akte.X.S04.German.DTS.DL.108...
Akte.X.S03.German.DTS.DL.108...
Dunkirk.1958.COMPLETE.BLURAY...
Das.Wunder.von.Manhattan.199...
The.Amazing.Spiderman.2.Rise...
Rise.of.the.Predator.2014.Ge...
Detective.Dee.und.das.Geheim...
Detective.Dee.Und.Der.Fluch....
Ghost.Rider.Spirit.of.Vengea...
Species.IV.Das.Erwachen.2007...
Species.IV.Das.Erwachen.2007...
Hotel.Transsilvanien.2012.Ge...
The.Dead.2010.German.DL.1080...
The.Dead.2.India.2013.German...

Filme
Outrage.2010.German.AC3.DL.1...
Rocky.1976.German.AC3.DL.108...
Shaft.Noch.Fragen.2000.Germa...
Savage.Dog.2017.German.DL.10...
Rosa.Lebe.deine.Fantasie.201...
Rosemarys.Baby.1968.German.D...
Ronal.der.Barbar.2011.German...
The.Blade.Das.zerbrochene.Sc...
Savage.Streets.1984.German.D...
Savaged.UNCUT.2013.German.DL...
Nitro.28.Winter.GERMAN.AC3.D...
Mona.Lisa.1986.GERMAN.AC3.10...
Beyond.The.Brick.A.LEGO.Bric...
Eisbaeren.Abenteuer.Einer.Ju...
Ein.Pinguin.Kommt.Selten.All...
Satanic.Slaughter.2004.Germa...
Saturday.Morning.Massacre.20...
Christmas.Twister.2012.Germa...
Die.Fliege.II.1989.German.10...
Ski.Academy.1990.German.1080...
Das.Dorf.der.wilden.Tiere.GE...
The.Lodger.Der.Untermieter.2...
My.Girl.2.Meine.grosse.Liebe...
Gestohlene.Worte.Der.Roman.d...

 
 
Rocky.1976.German.AC3.DL.1080p.Web.UHD.x265-FuN

Jahr: 1976
Genre: Drama
Sprache: Deutsch AC3 | Englisch AC3
Laufzeit: 1h 59mn
Bitrate: 5 118 Kbps
Format: MKV
Größe: 4.27 GiB
Release:

Beschreibung:

Der US-Schwergewichts-Boxchampion Apollo Creed beherrscht seine Gegner so nach Belieben, daß es schon langweilig ist. Um wieder in die Schlagzeilen zu kommen, entscheidet er sich dafür, einem unbekannten weißen Boxer eine Chance auf einen WM-Kampf zu geben. Die Wahl fällt auf den mit relativ begrenztem Intellekt gesegneten Rocky Balboa, der ansonsten im Schlachthaus arbeitet oder als Geldeintreiber. Im Augenblick interessiert ihn auch mehr die in einem Tierladen arbeitende Adrian. Doch als die Chance kommt, beginnt Rocky unter Anleitung seines Trainers Mickey zu trainieren. Sein Wunsch: nicht k.o. zu gehen...




Format                                   : Matroska
Format version                           : Version 4 / Version 2
File size                                : 4.27 GiB
Duration                                 : 1h 59mn
Overall bit rate                         : 5 118 Kbps
Movie name                               : Rocky 1976 DTS-HD DL 1080p
Encoded date                             : UTC 2018-12-27 01:29:25
Writing application                      : mkvmerge v29.0.0 ('Like It Or Not') 64-bit
Writing library                          : libebml v1.3.6 + libmatroska v1.4.9

Video
ID                                       : 1
Format                                   : HEVC
Format/Info                              : High Efficiency Video Coding
Format profile                           : Main@L4.0
Codec ID                                 : V_MPEGH/ISO/HEVC
Duration                                 : 1h 59mn
Bit rate                                 : 4 248 Kbps
Width                                    : 1 920 pixels
Height                                   : 1 036 pixels
Display aspect ratio                     : 1.85:1
Frame rate mode                          : Constant
Frame rate                               : 23.976 fps
Color space                              : YUV
Chroma subsampling                       : 4:2:0
Bit depth                                : 8 bits
Bits/(Pixel*Frame)                       : 0.089
Stream size                              : 3.54 GiB (83%)
Writing library                          : x265 2.6:[Linux][GCC 6.4.0][64 bit] 8bit+10bit+12bit
Encoding settings                        : cpuid=1173503 / frame-threads=3 / wpp / no-pmode / no-pme / no-psnr / no-ssim / log-level=2 / input-csp=1 / input-res=1920x1036 / interlace=0 / total-frames=0 / level-idc=0 / high-tier=1 / uhd-bd=0 / ref=3 / no-allow-non-conformance / no-repeat-headers / annexb / no-aud / no-hrd / info / hash=0 / no-temporal-layers / open-gop / min-keyint=24 / keyint=240 / bframes=4 / b-adapt=2 / b-pyramid / bframe-bias=0 / rc-lookahead=20 / lookahead-slices=6 / scenecut=40 / no-intra-refresh / ctu=64 / min-cu-size=8 / no-rect / no-amp / max-tu-size=32 / tu-inter-depth=1 / tu-intra-depth=1 / limit-tu=0 / rdoq-level=0 / dynamic-rd=0.00 / no-ssim-rd / signhide / no-tskip / nr-intra=0 / nr-inter=0 / no-constrained-intra / strong-intra-smoothing / max-merge=2 / limit-refs=3 / no-limit-modes / me=1 / subme=2 / merange=57 / temporal-mvp / weightp / no-weightb / no-analyze-src-pics / deblock=0:0 / no-sao / no-sao-non-deblock / rd=3 / no-early-skip / rskip / no-fast-intra / no-tskip-fast / no-cu-lossless / no-b-intra / no-splitrd-skip / rdpenalty=0 / psy-rd=2.00 / psy-rdoq=0.00 / no-rd-refine / analysis-reuse-mode=0 / no-lossless / cbqpoffs=0 / crqpoffs=0 / rc=crf / crf=23.0 / qcomp=0.60 / qpstep=4 / stats-write=0 / stats-read=0 / ipratio=1.40 / pbratio=1.30 / aq-mode=1 / aq-strength=1.00 / cutree / zone-count=0 / no-strict-cbr / qg-size=32 / no-rc-grain / qpmax=69 / qpmin=0 / no-const-vbv / sar=1 / overscan=0 / videoformat=5 / range=0 / colorprim=1 / transfer=1 / colormatrix=1 / chromaloc=0 / display-window=0 / max-cll=0,0 / min-luma=0 / max-luma=255 / log2-max-poc-lsb=8 / vui-timing-info / vui-hrd-info / slices=1 / no-opt-qp-pps / no-opt-ref-list-length-pps / no-multi-pass-opt-rps / scenecut-bias=0.05 / no-opt-cu-delta-qp / no-aq-motion / no-hdr / no-hdr-opt / no-dhdr10-opt / analysis-reuse-level=5 / scale-factor=0 / refine-intra=0 / refine-inter=0 / refine-mv=0 / no-limit-sao / ctu-info=0 / no-lowpass-dct / refine-mv-type=0 / copy-pic=1
Default                                  : Yes
Forced                                   : No
DURATION                                 : 01:59:26.910000000
NUMBER_OF_FRAMES                         : 171834
NUMBER_OF_BYTES                          : 3896028029
_STATISTICS_WRITING_APP                  : mkvmerge v29.0.0 ('Like It Or Not') 64-bit
_STATISTICS_WRITING_DATE_UTC             : 2018-12-27 01:29:25
_STATISTICS_TAGS                         : BPS DURATION NUMBER_OF_FRAMES NUMBER_OF_BYTES

Audio #1
ID                                       : 2
Format                                   : AC-3
Format/Info                              : Audio Coding 3
Mode extension                           : CM (complete main)
Format settings, Endianness              : Big
Codec ID                                 : A_AC3
Duration                                 : 1h 59mn
Bit rate mode                            : Constant
Bit rate                                 : 384 Kbps
Channel(s)                               : 6 channels
Channel positions                        : Front: L C R, Side: L R, LFE
Sampling rate                            : 48.0 KHz
Bit depth                                : 16 bits
Compression mode                         : Lossy
Delay relative to video                  : 7ms
Stream size                              : 328 MiB (8%)
Title                                    : Surround
Language                                 : German
Default                                  : Yes
Forced                                   : No
DURATION                                 : 01:59:20.256000000
NUMBER_OF_FRAMES                         : 223758
NUMBER_OF_BYTES                          : 343692288
_STATISTICS_WRITING_APP                  : mkvmerge v29.0.0 ('Like It Or Not') 64-bit
_STATISTICS_WRITING_DATE_UTC             : 2018-12-27 01:29:25
_STATISTICS_TAGS                         : BPS DURATION NUMBER_OF_FRAMES NUMBER_OF_BYTES

Audio #2
ID                                       : 3
Format                                   : AC-3
Format/Info                              : Audio Coding 3
Mode extension                           : CM (complete main)
Format settings, Endianness              : Big
Codec ID                                 : A_AC3
Duration                                 : 1h 59mn
Bit rate mode                            : Constant
Bit rate                                 : 384 Kbps
Channel(s)                               : 6 channels
Channel positions                        : Front: L C R, Side: L R, LFE
Sampling rate                            : 48.0 KHz
Bit depth                                : 16 bits
Compression mode                         : Lossy
Delay relative to video                  : 7ms
Stream size                              : 328 MiB (8%)
Title                                    : Surround
Language                                 : English
Default                                  : No
Forced                                   : No
DURATION                                 : 01:59:20.256000000
NUMBER_OF_FRAMES                         : 223758
NUMBER_OF_BYTES                          : 343692288
_STATISTICS_WRITING_APP                  : mkvmerge v29.0.0 ('Like It Or Not') 64-bit
_STATISTICS_WRITING_DATE_UTC             : 2018-12-27 01:29:25
_STATISTICS_TAGS                         : BPS DURATION NUMBER_OF_FRAMES NUMBER_OF_BYTES



Download:
Share Online Share OnlineShare OnlineShare Online
 

Kommentare