HD-AREA wünscht Euch eine besinnliche Weihnachtszeit ;)

DNS SERVER AENDERNum der staatlichen Zensur zu umgehen. Sollten wir von eurem Provider geseprrt werden, nutzt den TOR BROWSER oder ändert euren DNS SERVER.

Filmwünsche können bei uns im Forum abgegeben werden

Wir Speichern Nicht




 
 
 
Top Releases
Mountain.2017.German.DL.DOKU...
Mountain.2017.German.DL.DOKU...
Eleanor.und.Colette.2017.Ger...
Hubert.und.Staller.Eine.scho...
Outrage.Coda.2017.German.AC3...
Sie.nannten.ihn.Jeeg.Robot.2...
Bird.Box.Schliesse.deine.Aug...
Being.Mario.Goetze.2018.GERM...
Being.Mario.Goetze.2018.GERM...
Liebe.Bringt.Alles.Ins.Rolle...

Cinedubs
Eho.Echo.German.720p.WEBRip....
Eho.Echo.German.1080p.WEBRip...
Bad.Times.at.the.El.Royale.2...
Bad.Spies.2018.German.DL.AC3...
Aquaman.2018.GERMAN.AC3.MD.7...
Bad.Spies.German.DL.AC3.Dubb...
Bad.Spies.German.DL.AC3.Dubb...
Bad.Times.at.the.El.Royale.G...
Bad.Times.at.the.El.Royale.G...
The.Guilty.German.DL.AC3.Dub...

Neuerscheinungen 2017-18
When.Angels.Sleep.2018.Germa...
Hudsucker.Der.grosse.Sprung....
Assault.Anschlag.bei.Nacht.A...
Subconscious.Cruelty.2000.Ge...
How.It.Ends.2018.German.AC3D...
Subconscious.Cruelty.2000.MU...
Welcome.Home.2018.German.DD5...
Welcome.Home.2018.German.DD5...
Predator.Upgrade.2018.German...
The.Sun.at.Midnight.2016.Ger...

XXX
JapanHDV.18.12.18.Asian.Woma...
JulesJordan.18.12.18.Lana.Rh...
IKnowThatGirl.18.12.16.Aria....
HungryCumEaters.18.12.15.Ait...
LaurenPhillips.18.01.05.Laur...
LANewGirl.18.12.11.Chloe.Tem...
LaurenPhillips.18.02.23.Cumm...
LaurenPhillips.18.04.06.Twer...
Hustler.18.12.16.Olivia.Aust...
LaurenPhillips.18.04.13.Plea...
Kemaco.36.XXX.1080p.WEBRip.M...
LaurenPhillips.18.02.02.Laur...
EvilAngel.Dark.Meat.10.XXX.1...
ImmoralLive.18.12.18.Gabi.Go...
JaysPOV.18.12.15.Aften.Opal....
LaurenPhillips.18.01.26.Lips...
JulesJordan.18.12.16.Autumn....
EvilAngel.Hot.N.Heavy.DPs.XX...
LaurenPhillips.18.02.09.Milk...
LaurenPhillips.18.03.16.Squi...

3D
Limbradur.und.die.Magie.der....
Kaluoka.Hina.Das.Zauberriff....
Limbradur.und.die.Magie.der....
Smallfoot.3D.2018.COMPLETE.B...
Smallfoot.Ein.eisigartiges.A...
Skyscraper.3D.2018.German.DL...
Meg.3D.2018.MULTi.COMPLETE.B...
Meg.3D.2018.German.DL.1080p....
Gans.im.Glueck.3D.2018.MULTi...
The.Art.of.Flight.3D.2011.Ge...
The.End.Of.The.World.3D.2010...
The.First.Avenger.Civil.War....
Die.Unglaublichen.2.2018.3D....
Skyscraper.3D.2018.MULTi.COM...
Ant-Man.And.The.Wasp.3D.2018...

Old_Stuff
Akte.X.S05.German.DTS.DL.108...
Akte.X.S04.German.DTS.DL.108...
Akte.X.S03.German.DTS.DL.108...
Dunkirk.1958.COMPLETE.BLURAY...
Das.Wunder.von.Manhattan.199...
The.Amazing.Spiderman.2.Rise...
Rise.of.the.Predator.2014.Ge...
Detective.Dee.und.das.Geheim...
Detective.Dee.Und.Der.Fluch....
Ghost.Rider.Spirit.of.Vengea...
Species.IV.Das.Erwachen.2007...
Species.IV.Das.Erwachen.2007...
Hotel.Transsilvanien.2012.Ge...
The.Dead.2010.German.DL.1080...
The.Dead.2.India.2013.German...

Filme
Pulse.2006.German.AC3D.DL.10...
Cirque.du.Soleil.Kurios.Cabi...
Bermuda.Dreieck.Nordsee.2011...
Bermuda.Dreieck.Nordsee.2011...
Bermuda.Dreieck.Nordsee.2011...
Hudsucker.Der.grosse.Sprung....
Der.gebrochene.Pfeil.1950.Ge...
Punchline.Der.Knalleffekt.19...
Sayonara.1957.1080p.BluRay.R...
Harley.Davidson.und.der.Marl...
Bermuda.Dreieck.Nordsee.2011...
Wilde.Katzen.1960.German.AC3...
Going.Under.2004.German.DL.1...
The.Return.of.the.Living.Dea...
Weisse.Wildnis.1958.German.A...
Outrage.2010.German.AC3.DL.1...
Rocky.1976.German.AC3.DL.108...
Shaft.Noch.Fragen.2000.Germa...
Savage.Dog.2017.German.DL.10...
Rosa.Lebe.deine.Fantasie.201...
Rosemarys.Baby.1968.German.D...
Ronal.der.Barbar.2011.German...
The.Blade.Das.zerbrochene.Sc...
Savage.Streets.1984.German.D...

 
 
Bermuda.Dreieck.Nordsee.2011.German.720p.BluRay.x264.iNTERNAL-EXPS

Jahr: 2011
Genre: Action, Thriller
Sprache: Deutsch DTS
Laufzeit: 2h 21mn
Bitrate: 5 510 Kbps
Format: MKV
Größe: 5.45 GiB
Release:

Beschreibung:

Als vor Hallig Nordersand spurlos Schiffe verschwinden, Windparks zusammenbrechen und scharenweise tote Möwen an den Strand gespült werden scheint etwas Unheimliches vor sich zu gehen. Ist die seit Jahrhunderten überlieferte Geschichte vom "Hexenloch" in der Nordsee doch nicht nur Seemannsgarn? Wirft eine große Naturkatastrophe ihre Schatten voraus oder steckt vielleicht doch das groß angelegte CO²-Sequestrierungsprojekt des Energieriesen Global Senergy dahinter? Postflieger Tom Jaeger (Hannes Jaenicke) und PR-Frau Marie Niklas (Bettina Zimmermann) machen sich auf die Suche nach der Wahrheit und geraten dabei immer tiefer in einen Strudel aus Machtgier und Profitdenken. Um die tödliche Katastrophe abzuwenden, beginnt für sie ein Wettlauf mit der Zeit, bei dem sie Kopf und Kragen riskieren.



Complete name                            : exps-bermudadreieck-720p.mkv
Format                                   : Matroska
Format version                           : Version 4 / Version 2
File size                                : 5.45 GiB
Duration                                 : 2h 21mn
Overall bit rate                         : 5 510 Kbps
Encoded date                             : UTC 2018-12-26 11:30:40
Writing application                      : mkvmerge v9.0.1 ('Obstacles') 64bit
Writing library                          : libebml v1.3.3 + libmatroska v1.4.4
DURATION                                 : 02:21:40.000000000
NUMBER_OF_FRAMES                         : 796875
NUMBER_OF_BYTES                          : 1603312500
_STATISTICS_WRITING_APP                  : mkvmerge v9.0.1 ('Obstacles') 64bit
_STATISTICS_WRITING_DATE_UTC             : 2018-12-26 11:30:40
_STATISTICS_TAGS                         : BPS DURATION NUMBER_OF_FRAMES NUMBER_OF_BYTES

Video
ID                                       : 1
Format                                   : AVC
Format/Info                              : Advanced Video Codec
Format profile                           : High@L4.1
Format settings, CABAC                   : Yes
Format settings, ReFrames                : 5 frames
Codec ID                                 : V_MPEG4/ISO/AVC
Duration                                 : 2h 21mn
Bit rate                                 : 4 000 Kbps
Width                                    : 1 280 pixels
Height                                   : 720 pixels
Display aspect ratio                     : 16:9
Frame rate mode                          : Constant
Frame rate                               : 25.000 fps
Color space                              : YUV
Chroma subsampling                       : 4:2:0
Bit depth                                : 8 bits
Scan type                                : Progressive
Bits/(Pixel*Frame)                       : 0.174
Stream size                              : 3.85 GiB (71%)
Writing library                          : x264 core 157 r2935 545de2f
Encoding settings                        : cabac=1 / ref=5 / deblock=1:-1:-1 / analyse=0x3:0x113 / me=umh / subme=7 / psy=1 / psy_rd=1.00:0.00 / mixed_ref=1 / me_range=16 / chroma_me=1 / trellis=1 / 8x8dct=1 / cqm=0 / deadzone=21,11 / fast_pskip=0 / chroma_qp_offset=-2 / threads=22 / lookahead_threads=3 / sliced_threads=0 / nr=0 / decimate=1 / interlaced=0 / bluray_compat=0 / constrained_intra=0 / bframes=3 / b_pyramid=2 / b_adapt=1 / b_bias=0 / direct=3 / weightb=1 / open_gop=0 / weightp=2 / keyint=250 / keyint_min=25 / scenecut=40 / intra_refresh=0 / rc_lookahead=40 / rc=2pass / mbtree=1 / bitrate=4000 / ratetol=1.0 / qcomp=0.60 / qpmin=0 / qpmax=69 / qpstep=4 / cplxblur=20.0 / qblur=0.5 / ip_ratio=1.40 / aq=1:1.00
Default                                  : Yes
Forced                                   : No

Audio
ID                                       : 2
Format                                   : DTS
Format/Info                              : Digital Theater Systems
Mode                                     : 16
Format settings, Endianness              : Big
Codec ID                                 : A_DTS
Duration                                 : 2h 21mn
Bit rate mode                            : Constant
Bit rate                                 : 1 509 Kbps
Channel(s)                               : 6 channels
Channel positions                        : Front: L C R, Side: L R, LFE
Sampling rate                            : 48.0 KHz
Bit depth                                : 24 bits
Compression mode                         : Lossy
Stream size                              : 1.49 GiB (27%)
Language                                 : German
Default                                  : Yes
Forced                                   : No


Download:
Share Online Share OnlineShare OnlineShare Online
 

Kommentare