DNS SERVER AENDERNum der staatlichen Zensur zu umgehen. Sollten wir von eurem Provider geseprrt werden, nutzt den TOR BROWSER oder ändert euren DNS SERVER.

Filmwünsche können bei uns im Forum abgegeben werden

Wir Speichern Nicht




 
 
 
Top Releases
Upgrade.German.DL.AC3.Dubbed...
Upgrade.German.DL.AC3.Dubbed...
The.Guilty.2018.German.720p....
The.Guilty.2018.German.1080p...
The.Guilty.2018.MULTi.COMPLE...
Padmaavat.Ein.Koenigreich.fu...
Padmaavat.Ein.Koenigreich.fu...
Padmaavat.Ein.Koenigreich.fu...
Padmaavat.Ein.Koenigreich.fu...
The.Christmas.Chronicles.201...

Cinedubs
Gaensehaut.2.Gruseliges.Hall...
Aquaman.TS.LD.German.DL.720p...
Eho.Echo.German.720p.WEBRip....
Eho.Echo.German.1080p.WEBRip...
Bad.Times.at.the.El.Royale.2...
Bad.Spies.2018.German.DL.AC3...
Aquaman.2018.GERMAN.AC3.MD.7...
Bad.Spies.German.DL.AC3.Dubb...
Bad.Spies.German.DL.AC3.Dubb...
Bad.Times.at.the.El.Royale.G...

Neuerscheinungen 2018-19
Dieter.der.Film.2006.German....
Godzilla.The.Planet.Eater.20...
Godzilla.The.Planet.Eater.20...
Do.the.Right.Thing.1989.Germ...
Welcome.Home.2018.German.DL....
Welcome.Home.2018.German.720...
Der.Fluch.des.schwarzen.Rubi...
Welcome.Home.2018.MULTi.COMP...
Maniac.REMASTERED.GERMAN.198...
American.Violet.2008.German....

XXX
MyLifeInMiami.18.12.05.Vina....
Lustery.E157.Maya.And.Edward...
NinaKayy.17.05.12.Foot.Teasi...
NataliaStarr.18.03.09.Sexy.W...
NataliaStarr.18.03.09.Heatin...
NataliaStarr.18.03.09.Cummin...
NHLPCentral.18.12.26.April.P...
NinaKayy.17.05.06.Foot.Domin...
MomXXX.18.12.27.Kiki.Minaj.X...
MyLifeInMiami.18.12.21.Kitty...
MommyBlowsBest.18.12.26.Lexi...
NinaKayy.17.05.09.Sexting.Yo...
MyLifeInMiami.18.11.30.Brook...
NataliaStarr.18.03.09.Riding...
MyLifeInMiami.18.12.21.Megan...
MassageRooms.18.12.26.Angel....
MomsBangTeens.18.12.25.Cory....
NHLPCentral.18.12.20.Tindra....
NinaKayy.17.05.14.Betty.Bang...
NinaKayy.17.05.01.Netflix.Ch...

3D
Bis.an.die.Grenzen.des.Unive...
Best.of.3D.vol.13.-.15.GERMA...
Limbradur.und.die.Magie.der....
Kaluoka.Hina.Das.Zauberriff....
Limbradur.und.die.Magie.der....
Smallfoot.3D.2018.COMPLETE.B...
Smallfoot.Ein.eisigartiges.A...
Skyscraper.3D.2018.German.DL...
Meg.3D.2018.MULTi.COMPLETE.B...
Meg.3D.2018.German.DL.1080p....
Gans.im.Glueck.3D.2018.MULTi...
The.Art.of.Flight.3D.2011.Ge...
The.End.Of.The.World.3D.2010...
The.First.Avenger.Civil.War....
Die.Unglaublichen.2.2018.3D....

Old_Stuff
Animatrix.2003.German.DL.108...
Animatrix.2003.German.DL.720...
Akte.X.S06.German.DTS.DL.108...
The.Beauty.of.Gemina.Minor.S...
ZZ.Top.Live.from.Texas.2008....
Peter.Hase.2018.German.DL.10...
Akte.X.S05.German.DTS.DL.108...
Akte.X.S04.German.DTS.DL.108...
Akte.X.S03.German.DTS.DL.108...
Dunkirk.1958.COMPLETE.BLURAY...
Das.Wunder.von.Manhattan.199...
The.Amazing.Spiderman.2.Rise...
Rise.of.the.Predator.2014.Ge...
Detective.Dee.und.das.Geheim...
Detective.Dee.Und.Der.Fluch....

Filme
Giganten.Die.10.groessten.Un...
Giganten.Die.10.groessten.Un...
Der.Neandertaler.in.uns.E01....
Der.Neandertaler.in.uns.E01....
Werner.Beinhart.1990.German....
Werner.Beinhart.1990.German....
Dieter.der.Film.2006.German....
Do.the.Right.Thing.1989.Germ...
Wynonna.Earp.S01D01-2.MULTi....
Der.Campus.1998.German.1080p...
Mountain.2017.DOKU.German.DL...
Ein.Wunder.S01.GERMAN.DL.AC3...
When.Heroes.Fly.S01.COMPLETE...
Enemmy.-.Auf.den.Spuren.des....
Sex.Education.S01.COMPLETE.G...
When.Heroes.Fly.S01.COMPLETE...
Titans.S01.COMPLETE.GERMAN.D...
Hi.Mom.1970.German.AC3D.DL.7...
Nobody.2007.German.DL.1080p....
Goldene.Zeiten.2006.German.1...
Venus.and.Vegas.2010.German....
Gunpowder.S01.MULTi.COMPLETE...
Night.School.2018.THEATRICAL...
Night.School.EXTENDED.German...

 
 
Godzilla.The.Planet.Eater.2018.GERMAN.DL.ANiME.1080p.WEB.x264-MOUSECLiCK

Jahr: 2018
Genre: Animation, Action
Sprache: Deutsch AC3 | Englisch AC3
Laufzeit: 1h 30mn
Bitrate: 8 037 Kbps
Format: MKV
Größe: 5.10 GiB
Release:

Beschreibung:

Dritter Teil der animierten „Godzilla“-Filmreihe, die in Deutschland auf Netflix zu sehen ist. Dort haben Godzilla und viele andere Monster die Erde übernommen – und zwar vor 20.000 Jahren! Die Menschen versuchen, ihre alte Heimat zurückzuerobern und kämpfen im zweiten Teil, „Eine Stadt am Rande der Schlacht“, zusammen mit Robotern gegen den bisher größten Godzilla überhaupt. Im dritten Film steht der alles entscheidende Endkampf an – gegen den dreiköpfigen Riesendrachen King Ghidorah! Kann die Menschheit diesen Krieg gewinnen oder versinkt ihr Planet für immer in absoluter Dunkelheit?



Complete name                            : mouseclick-godzilla.the.planet.eater.2018-1080p.mkv
Format                                   : Matroska
Format version                           : Version 4 / Version 2
File size                                : 5.10 GiB
Duration                                 : 1h 30mn
Overall bit rate mode                    : Variable
Overall bit rate                         : 8 037 Kbps
Encoded date                             : UTC 2019-01-09 18:37:55
Writing application                      : mkvmerge v30.1.0 ('Forever And More') 64-bit
Writing library                          : libebml v1.3.6 + libmatroska v1.4.9
DURATION                                 : 01:29:25.750000000
NUMBER_OF_FRAMES                         : 1348
NUMBER_OF_BYTES                          : 54347
_STATISTICS_WRITING_APP                  : mkvmerge v30.1.0 ('Forever And More') 64-bit
_STATISTICS_WRITING_DATE_UTC             : 2019-01-09 18:37:55
_STATISTICS_TAGS                         : BPS DURATION NUMBER_OF_FRAMES NUMBER_OF_BYTES

Video
ID                                       : 1
Format                                   : AVC
Format/Info                              : Advanced Video Codec
Format profile                           : Main@L4.0
Format settings, CABAC                   : Yes
Format settings, ReFrames                : 3 frames
Codec ID                                 : V_MPEG4/ISO/AVC
Duration                                 : 1h 30mn
Bit rate mode                            : Variable
Bit rate                                 : 6 810 Kbps
Maximum bit rate                         : 10.2 Mbps
Width                                    : 1 920 pixels
Height                                   : 1 080 pixels
Display aspect ratio                     : 16:9
Frame rate mode                          : Constant
Frame rate                               : 24.000 fps
Color space                              : YUV
Chroma subsampling                       : 4:2:0
Bit depth                                : 8 bits
Scan type                                : Progressive
Bits/(Pixel*Frame)                       : 0.137
Stream size                              : 4.18 GiB (82%)
Writing library                          : x264 core 148 r2715 7e75228
Encoding settings                        : cabac=1 / ref=3 / deblock=1:0:0 / analyse=0x1:0x111 / me=umh / subme=10 / psy=1 / psy_rd=1.00:0.00 / mixed_ref=1 / me_range=24 / chroma_me=1 / trellis=2 / 8x8dct=0 / cqm=0 / deadzone=21,11 / fast_pskip=1 / chroma_qp_offset=-2 / threads=8 / lookahead_threads=1 / sliced_threads=0 / nr=0 / decimate=1 / interlaced=0 / bluray_compat=0 / stitchable=1 / constrained_intra=0 / bframes=2 / b_pyramid=0 / b_adapt=2 / b_bias=0 / direct=3 / weightb=1 / open_gop=0 / weightp=2 / keyint=48 / keyint_min=25 / scenecut=0 / intra_refresh=0 / rc_lookahead=48 / rc=2pass / mbtree=1 / bitrate=6810 / ratetol=1.0 / qcomp=0.50 / qpmin=6 / qpmax=51 / qpstep=4 / cplxblur=20.0 / qblur=0.5 / vbv_maxrate=10215 / vbv_bufsize=13620 / nal_hrd=vbr / filler=0 / ip_ratio=1.40 / aq=1:1.00
Default                                  : Yes
Forced                                   : No

Audio #1
ID                                       : 2
Format                                   : E-AC-3
Format/Info                              : Audio Coding 3
Format settings, Endianness              : Big
Codec ID                                 : A_EAC3
Duration                                 : 1h 30mn
Bit rate mode                            : Constant
Bit rate                                 : 640 Kbps
Channel(s)                               : 6 channels
Channel positions                        : Front: L C R, Side: L R, LFE
Sampling rate                            : 48.0 KHz
Compression mode                         : Lossy
Stream size                              : 416 MiB (8%)
Title                                    : German
Language                                 : German
Default                                  : No
Forced                                   : No

Audio #2
ID                                       : 3
Format                                   : E-AC-3
Format/Info                              : Audio Coding 3
Format settings, Endianness              : Big
Codec ID                                 : A_EAC3
Duration                                 : 1h 30mn
Bit rate mode                            : Constant
Bit rate                                 : 640 Kbps
Channel(s)                               : 6 channels
Channel positions                        : Front: L C R, Side: L R, LFE
Sampling rate                            : 48.0 KHz
Compression mode                         : Lossy
Stream size                              : 416 MiB (8%)
Title                                    : Japanese
Language                                 : Japanese
Default                                  : No
Forced                                   : No

Text #1
ID                                       : 4
Format                                   : UTF-8
Codec ID                                 : S_TEXT/UTF8
Codec ID/Info                            : UTF-8 Plain Text
Title                                    : German [Full]
Language                                 : German
Default                                  : No
Forced                                   : No

Text #2
ID                                       : 5
Format                                   : UTF-8
Codec ID                                 : S_TEXT/UTF8
Codec ID/Info                            : UTF-8 Plain Text
Title                                    : Japanese [SDH]
Language                                 : Japanese
Default                                  : No
Forced                                   : No


Download:
Share Online Share OnlineShare OnlineShare Online
 

Kommentare